Badges of Fury.2013.DVDscr.x264.AC3-SmY

seeders: 5
leechers: 5


Added on Jun 25, 2013 in Movies
Downloaded 411 times.

Available in versions: 1080p720pBDRipHDRiPDVDRipScreener
Badges of Fury.2013.DVDscr.x264.AC3-SmY (Size: 1.52 GB)
  Badges of Fury.2013.DVDscr.x264.AC3-SmY.mkv 1.5 GB
  sample.mkv 18.52 MB

Description



Director:Tsz Ming Wong

Jet Li ... Huang Fei Hong

Zhang Wen ... Wang Bu Er

Shishi Liu ... Liu Jin Shui

Michelle Chen ... Angela

Yan Liu ... Dai Yi Yi

Aaron Shang ... Li Bu Chuan

Language: Mandarin

subtitle:HC Chinese&English

sample:yes
Badges Of Fury, a crime thriller featuring one hell of a martial arts trio with
Jet Li , Collin Chou and Wu Jing in the lead roles. When a spate of eerie murders erupts
across HK two troublemaking cops are assigned to the case. Young maverick WANG and
grizzled vet HUANG who is fed up with his reckless younger partner always landing them in
hot water. Reaching a dead end after discovering all the victims were former boyfriends of
aspiring starlet LIU, the detectives must play a deadly game. One of them must go
undercover as Liu's lover to lure the killer out. Li, Chou and Wu are three of the finest
screen fighters in the world and with Kung Fu Hustle and Crouching Tiger vet Po Chu Chui
in the producer's chair here's betting they're put to good use ............
Format : Matroska

Format version : Version 2

File size : 1.50 GiB

Duration : 1h 32mn

Overall bit rate : 2 314 Kbps

Encoded date : UTC 2013-06-24 13:41:33

Writing application : mkvmerge v5.2.0 ('I can't explain') built on Dec 18 2011 18:12:03

Writing library : libebml v1.2.3 + libmatroska v1.3.0

Video #1

ID : 1

Format : AVC

Format/Info : Advanced Video Codec

Format profile : [email protected]

Format settings, CABAC : Yes

Format settings, ReFrames : 4 frames

Muxing mode : Header stripping

Codec ID : V_MPEG4/ISO/AVC

Duration : 1h 32mn

Bit rate : 2 000 Kbps

Width : 720 pixels

Height : 310 pixels

Display aspect ratio : 2.35:1

Frame rate : 29.970 fps

Color space : YUV

Chroma subsampling : 4:2:0

Bit depth : 8 bits

Scan type : Progressive

Bits/(Pixel*Frame) : 0.299

Stream size : 1.26 GiB (84%)

Writing library : x264 core 116 r2074 2641b9e

Audio #2

ID : 2

Format : AC-3

Format/Info : Audio Coding 3

Mode extension : CM (complete main)

Format settings, Endianness : Big

Muxing mode : Header stripping

Codec ID : A_AC3

Duration : 1h 32mn

Bit rate mode : Constant

Bit rate : 320 Kbps

Channel(s) : 2 channels

Channel positions : Front: L R

Sampling rate : 48.0 KHz

Bit depth : 16 bits

Compression mode : Lossy

Stream size : 212 MiB (14%)

Default : No

Forced : No

Related Torrents

torrent name size files age seed leech

Sharing Widget


Download this file
1.52 GB
seeders:5
leechers:5
Badges of Fury.2013.DVDscr.x264.AC3-SmY

Trackers

tracker name Status checked seeders leechers downloads
udp://tracker.openbittorrent.com:80/announce
outdated 03 Sep 2013 - - -
udp://tracker.publicbt.com:80/announce
outdated 03 Sep 2013 - - -
udp://tracker.istole.it:80/announce
outdated 03 Sep 2013 - - -
udp://tracker.seedceo.com:2710/announce
blocked 03 Sep 2013 - - -
udp://fr33dom.h33t.com:3310/announce
deleted 03 Sep 2013 - - -
udp://fr33domtracker.h33t.com:3310/announce
deleted 03 Sep 2013 - - -
udp://www.h33t.com:3310/announce
deleted 03 Sep 2013 - - -
udp://tracker.beeimg.com:6969/announce
pending 03 Sep 2013 0 0 0
udp://9.rarbg.com:2710/announce
pending 03 Sep 2013 3 3 411
udp://11.rarbg.com:80/announce
private 03 Sep 2013 3 3 10
µTorrent compatible trackers list

Locations

name author
ExtraTorrent
Torrent hash: 7F4819364B861BF4630224C336312AB8B2D7C849

All Comments

audio
0/10
video
0/10
please, leave only comments related to that torrent
or sign-in

User Opinions

Report a bug