Doraemon The Movie Nobita's 3 Magical Swordsmen Full Movie In HINDI HD 720p

seeders: 9
leechers: 6


Added on May 2, 2013 by doraemon131 in Movies
Downloaded 10 times.

Doraemon The Movie Nobita's 3 Magical Swordsmen Full Movie In HINDI HD 720p (Size: 834.66 MB)
  Sample
  Screenshot
  Doraemon The Movie Nobita's 3 Magical Swordsmen Full Movie In HINDI HD.mp4 809.15 MB

Description

image

image

SCREENSHOTS

image
image
image
image
image


Doraemon The Movie Nobita's 3 Magical Swordsmen Full Movie In HINDI HD

Format : MPEG-4
Format profile : Base Media / Version 2
Codec ID : mp42
File size : 809 MiB
Duration : 1h 40mn
Overall bit rate : 1 129 Kbps
Encoded date : UTC 2013-03-27 01:52:58
Tagged date : UTC 2013-03-27 01:52:58

Video
ID : 2
Format : AVC
Format/Info : Advanced Video Codec
Format profile : [email protected]
Format settings, CABAC : Yes
Format settings, ReFrames : 2 frames
Codec ID : avc1
Codec ID/Info : Advanced Video Coding
Duration : 1h 40mn
Bit rate mode : Variable
Bit rate : 996 Kbps
Width : 1 280 pixels
Height : 720 pixels
Display aspect ratio : 16:9
Frame rate mode : Constant
Frame rate : 29.970 fps
Standard : NTSC
Color space : YUV
Chroma subsampling : 4:2:0
Bit depth : 8 bits
Scan type : Progressive
Bits/(Pixel*Frame) : 0.036
Stream size : 714 MiB (88%)
Language : English
Encoded date : UTC 2013-03-27 01:52:58
Tagged date : UTC 2013-03-27 01:52:58

Audio
ID : 1
Format : AAC
Format/Info : Advanced Audio Codec
Format profile : LC
Codec ID : 40
Duration : 1h 40mn
Bit rate mode : Constant
Bit rate : 128 Kbps
Channel(s) : 2 channels
Channel positions : Front: L R
Sampling rate : 48.0 KHz
Compression mode : Lossy
Stream size : 91.8 MiB (11%)
Language : English
Encoded date : UTC 2013-03-27 01:52:58
Tagged date : UTC 2013-03-27 01:52:58



Thanks 1337x.org
Thanks DORA DESTINATION
Thanks Toon World
Thanks All



DORA DESTINATION - TOON WORLD - ANIMENETWORKINDIA


More Downloads
www.DoradestinatioN.weebly.com
www.ToonWorld4all.blogspot.com
www.animenetworkindia.com

Follow On Facebook
www.facebook.com/TheDoradestinatioN
www.facebook.com/Toonworld4all
www.facebook.com/animenetworkindia

Follow On Twitter
www.twitter.com/DoradestinatioN

'''Websites'''
www.DoradestinatioN.weebly.com
www.DoradestinatioN.blogspot.com
www.ToonWorld4all.blogspot.com
www.animenetworkindia.com

Sharing Widget


Download this file
834.66 MB
seeders:9
leechers:6
Doraemon The Movie Nobita's 3 Magical Swordsmen Full Movie In HINDI HD 720p

Trackers

tracker name Status checked seeders leechers downloads
udp://tracker.publicbt.com:80/announce
outdated 27 Jan 2014 - - -
udp://tracker.openbittorrent.com:80/announce
outdated 27 Jan 2014 - - -
udp://tracker.istole.it:80/announce
outdated 09 Oct 2013 - - -
udp://tracker.1337x.org:80/announce
outdated 07 Sep 2013 - - -
udp://fr33domtracker.h33t.com:3310/announce
deleted 07 Sep 2013 - - -
ĀµTorrent compatible trackers list

Locations

name author
KickassTorrents doraemon1
Torrent hash: 8BDD8D7E868F1FD6706BE35B7726F931FD07A814

All Comments

audio
10/10
video
10/10
please, leave only comments related to that torrent
or sign-in
0
.GENESIS.2410 • 27 July 2013, 03:14 Show comment
The title sais hindi but down at the bottom of the page in the info under video and audio it sais english. Does this have eng subs?
0
Aloo7107 • 10 May 2013, 08:43 Show comment
audio: 10video: 10
Thanksssss
0
planertrailers0 • 08 May 2013, 09:22 Show comment
Very Nice Movie
1
Raghavindia3 • 03 May 2013, 05:50 Show comment
audio: 10video: 10
Its So Good Love You doraemon

User Opinions

Report a bug